General

Unique ID : 189492325574976306217834625867289399492 (0x8E8EE4F7C4A6A73058F0078C232710C4)
Complete name : /home/30nama/movies/a/A_Beautiful_Mind_2001_10bit_1080p_x265_BrRip_MkvCage_30NAMA.mkv
Format : Matroska
Format version : Version 4
File size : 3.30 GiB
Duration : 2 h 15 min
Overall bit rate : 3 488 kb/s
Movie name : A.Beautiful.Mind.2001.1080p.BluRay.10bit.HEVC.6CH-MkvCage.ws
Encoded date : UTC 2019-04-30 13:59:53
Writing application : mkvmerge v32.0.0 ('Astral Progressions') 64-bit
Writing library : libebml v1.3.7 + libmatroska v1.5.0
Cover : Yes
Attachments : cover.jpg

Video

ID : 1
Format : HEVC
Format/Info : High Efficiency Video Coding
Format profile : Main 10@L4@Main
Codec ID : V_MPEGH/ISO/HEVC
Duration : 2 h 15 min
Bit rate : 3 230 kb/s
Width : 1 920 pixels
Height : 1 040 pixels
Display aspect ratio : 1.85:1
Frame rate mode : Constant
Frame rate : 23.976 (24000/1001) FPS
Color space : YUV
Chroma subsampling : 4:2:0
Bit depth : 10 bits
Bits/(Pixel*Frame) : 0.067
Stream size : 3.06 GiB (93%)
Default : Yes
Forced : No

Audio

ID : 2
Format : AAC LC SBR
Format/Info : Advanced Audio Codec Low Complexity with Spectral Band Replication
Commercial name : HE-AAC
Format settings : Explicit
Codec ID : A_AAC-2
Duration : 2 h 15 min
Bit rate : 256 kb/s
Channel(s) : 6 channels
Channel layout : C L R Ls Rs LFE
Sampling rate : 48.0 kHz
Frame rate : 23.438 FPS (2048 SPF)
Compression mode : Lossy
Delay relative to video : 43 ms
Stream size : 248 MiB (7%)
Language : English
Default : Yes
Forced : No

Text #1

ID : 3
Format : UTF-8
Codec ID : S_TEXT/UTF8
Codec ID/Info : UTF-8 Plain Text
Duration : 2 h 8 min
Bit rate : 53 b/s
Count of elements : 1536
Stream size : 50.1 KiB (0%)
Title : HI
Language : English
Default : Yes
Forced : No

Text #2

ID : 4
Format : UTF-8
Codec ID : S_TEXT/UTF8
Codec ID/Info : UTF-8 Plain Text
Duration : 2 h 7 min
Bit rate : 48 b/s
Count of elements : 1420
Stream size : 45.6 KiB (0%)
Language : English
Default : No
Forced : No