General

Unique ID : 174897012036429392353829201892092482523 (0x8393F073C4A3EB41A670A41D642513DB)
Complete name : /home/30nama/movies/a/A_Ghost_Story_2017_1080p_BluRay_AdiT_30NAMA.mkv
Format : Matroska
Format version : Version 4
File size : 4.63 GiB
Duration : 1 h 32 min
Overall bit rate : 7 199 kb/s
Movie name : A Ghost Story (2017) 1080p Bluray AC3 x264 - AdiT
Encoded date : UTC 2017-09-25 09:43:13
Writing application : mkvmerge v10.0.0 ('To Drown In You') 64bit
Writing library : libebml v1.3.4 + libmatroska v1.4.5

Video

ID : 1
Format : AVC
Format/Info : Advanced Video Codec
Format profile : High@L4.1
Format settings : CABAC / 5 Ref Frames
Format settings, CABAC : Yes
Format settings, ReFrames : 5 frames
Codec ID : V_MPEG4/ISO/AVC
Duration : 1 h 32 min
Bit rate : 6 557 kb/s
Width : 1 440 pixels
Height : 1 080 pixels
Display aspect ratio : 4:3
Frame rate mode : Constant
Frame rate : 23.976 (24000/1001) FPS
Color space : YUV
Chroma subsampling : 4:2:0
Bit depth : 8 bits
Scan type : Progressive
Bits/(Pixel*Frame) : 0.176
Stream size : 4.22 GiB (91%)
Writing library : x264 core 148 r2744 b97ae06
Encoding settings : cabac=1 / ref=5 / deblock=1:-2:-2 / analyse=0x3:0x133 / me=umh / subme=10 / psy=1 / psy_rd=1.00:0.05 / mixed_ref=1 / me_range=48 / chroma_me=1 / trellis=2 / 8x8dct=1 / cqm=0 / deadzone=21,11 / fast_pskip=0 / chroma_qp_offset=-3 / threads=18 / lookahead_threads=2 / sliced_threads=0 / nr=0 / decimate=0 / interlaced=0 / bluray_compat=0 / constrained_intra=0 / bframes=5 / b_pyramid=2 / b_adapt=2 / b_bias=0 / direct=1 / weightb=1 / open_gop=0 / weightp=2 / keyint=240 / keyint_min=23 / scenecut=40 / intra_refresh=0 / rc_lookahead=120 / rc=crf / mbtree=0 / crf=20.5 / qcomp=0.60 / qpmin=0 / qpmax=69 / qpstep=4 / vbv_maxrate=32000 / vbv_bufsize=38000 / crf_max=0.0 / nal_hrd=none / filler=0 / ip_ratio=1.30 / pb_ratio=1.20 / aq=2:0.80
Language : English
Default : Yes
Forced : No
Color range : Limited
Color primaries : BT.709
Transfer characteristics : BT.709
Matrix coefficients : BT.709

Audio

ID : 2
Format : AC-3
Format/Info : Audio Coding 3
Commercial name : Dolby Digital
Codec ID : A_AC3
Duration : 1 h 32 min
Bit rate mode : Constant
Bit rate : 640 kb/s
Channel(s) : 6 channels
Channel layout : L R C LFE Ls Rs
Sampling rate : 48.0 kHz
Frame rate : 31.250 FPS (1536 SPF)
Bit depth : 16 bits
Compression mode : Lossy
Stream size : 422 MiB (9%)
Language : English
Service kind : Complete Main
Default : Yes
Forced : No

Text

ID : 3
Format : UTF-8
Codec ID : S_TEXT/UTF8
Codec ID/Info : UTF-8 Plain Text
Duration : 1 h 24 min
Bit rate : 16 b/s
Count of elements : 312
Stream size : 10.00 KiB (0%)
Language : English
Default : Yes
Forced : No

Menu

00:00:00.000 : en:00:00:00.000
00:06:12.622 : en:00:06:12.622
00:11:27.103 : en:00:11:27.103
00:16:09.802 : en:00:16:09.802
00:22:37.398 : en:00:22:37.398
00:26:38.222 : en:00:26:38.222
00:33:45.982 : en:00:33:45.982
00:38:27.013 : en:00:38:27.013
00:43:49.669 : en:00:43:49.669
00:49:56.702 : en:00:49:56.702
00:56:13.870 : en:00:56:13.870
01:04:44.631 : en:01:04:44.631
01:08:55.840 : en:01:08:55.840
01:11:44.717 : en:01:11:44.717
01:18:37.963 : en:01:18:37.963
01:23:09.568 : en:01:23:09.568