General

Unique ID : 6943893332895830512880594121216463412 (0x539585FAF7FA872B5D20EA09C279234)
Complete name : /home/30nama/movies/a/Arctic_2018_1080p_BluRay_DTS_LoRD_30NAMA.mkv
Format : Matroska
Format version : Version 4
File size : 10.8 GiB
Duration : 1 h 38 min
Overall bit rate : 15.8 Mb/s
Encoded date : UTC 2019-05-10 08:05:40
Writing application : mkvmerge v33.1.0 ('Primrose') 64-bit
Writing library : libebml v1.3.7 + libmatroska v1.5.0

Video

ID : 1
Format : AVC
Format/Info : Advanced Video Codec
Format profile : High@L4.1
Format settings : CABAC / 5 Ref Frames
Format settings, CABAC : Yes
Format settings, ReFrames : 5 frames
Codec ID : V_MPEG4/ISO/AVC
Duration : 1 h 38 min
Bit rate : 14.3 Mb/s
Width : 1 920 pixels
Height : 804 pixels
Display aspect ratio : 2.40:1
Frame rate mode : Constant
Frame rate : 23.976 (24000/1001) FPS
Color space : YUV
Chroma subsampling : 4:2:0
Bit depth : 8 bits
Scan type : Progressive
Bits/(Pixel*Frame) : 0.385
Stream size : 9.77 GiB (90%)
Title : LoRD
Writing library : x264 core 157 r2969 d4099dd
Encoding settings : cabac=1 / ref=5 / deblock=1:-3:-3 / analyse=0x3:0x133 / me=umh / subme=10 / psy=1 / psy_rd=1.00:0.00 / mixed_ref=1 / me_range=32 / chroma_me=1 / trellis=2 / 8x8dct=1 / cqm=0 / deadzone=21,11 / fast_pskip=0 / chroma_qp_offset=-2 / threads=12 / lookahead_threads=2 / sliced_threads=0 / nr=0 / decimate=0 / interlaced=0 / bluray_compat=0 / constrained_intra=0 / bframes=8 / b_pyramid=2 / b_adapt=2 / b_bias=0 / direct=3 / weightb=1 / open_gop=0 / weightp=2 / keyint=250 / keyint_min=23 / scenecut=40 / intra_refresh=0 / rc_lookahead=60 / rc=2pass / mbtree=0 / bitrate=14255 / ratetol=1.0 / qcomp=0.60 / qpmin=0 / qpmax=69 / qpstep=4 / cplxblur=20.0 / qblur=0.5 / vbv_maxrate=50000 / vbv_bufsize=62500 / nal_hrd=none / filler=0 / ip_ratio=1.30 / pb_ratio=1.20 / aq=3:0.80
Language : English
Default : Yes
Forced : No

Audio

ID : 2
Format : DTS
Format/Info : Digital Theater Systems
Codec ID : A_DTS
Duration : 1 h 38 min
Bit rate mode : Constant
Bit rate : 1 509 kb/s
Channel(s) : 6 channels
Channel layout : C L R Ls Rs LFE
Sampling rate : 48.0 kHz
Frame rate : 93.750 FPS (512 SPF)
Bit depth : 24 bits
Compression mode : Lossy
Stream size : 1.03 GiB (10%)
Title : DTS
Language : English
Default : Yes
Forced : No

Text #1

ID : 3
Format : UTF-8
Codec ID : S_TEXT/UTF8
Codec ID/Info : UTF-8 Plain Text
Duration : 1 h 25 min
Bit rate : 2 b/s
Count of elements : 127
Stream size : 1.86 KiB (0%)
Language : English
Default : Yes
Forced : No

Text #2

ID : 4
Format : UTF-8
Codec ID : S_TEXT/UTF8
Codec ID/Info : UTF-8 Plain Text
Duration : 1 h 31 min
Bit rate : 6 b/s
Count of elements : 314
Stream size : 4.57 KiB (0%)
Title : SDH
Language : English
Default : No
Forced : No

Text #3

ID : 5
Format : UTF-8
Codec ID : S_TEXT/UTF8
Codec ID/Info : UTF-8 Plain Text
Duration : 1 h 25 min
Bit rate : 2 b/s
Count of elements : 111
Stream size : 1.86 KiB (0%)
Title : brazilian
Language : Portuguese
Default : No
Forced : No

Text #4

ID : 6
Format : UTF-8
Codec ID : S_TEXT/UTF8
Codec ID/Info : UTF-8 Plain Text
Duration : 1 h 36 min
Bit rate : 3 b/s
Count of elements : 180
Stream size : 2.71 KiB (0%)
Title : european
Language : Portuguese
Default : No
Forced : No

Menu

00:00:00.000 : en:Chapter 01
00:05:09.893 : en:Chapter 02
00:09:31.112 : en:Chapter 03
00:14:27.033 : en:Chapter 04
00:20:48.289 : en:Chapter 05
00:23:42.254 : en:Chapter 06
00:30:56.229 : en:Chapter 07
00:37:04.639 : en:Chapter 08
00:42:31.632 : en:Chapter 09
00:48:00.127 : en:Chapter 10
00:50:30.819 : en:Chapter 11
00:56:30.095 : en:Chapter 12
01:02:47.430 : en:Chapter 13
01:06:19.684 : en:Chapter 14
01:10:20.258 : en:Chapter 15
01:13:42.501 : en:Chapter 16
01:18:53.270 : en:Chapter 17
01:22:54.928 : en:Chapter 18
01:26:28.725 : en:Chapter 19
01:32:47.645 : en:Chapter 20