General

Unique ID : 113508044906621968571971080317181639242 (0x5564DAB0E0E4220A5102457710083A4A)
Complete name : /home/30nama/movies/c/City_of_Lies_2019_1080p_BluRay_Full_HD_AC3_iFT_30NAMA.mkv
Format : Matroska
Format version : Version 4
File size : 15.0 GiB
Duration : 1 h 52 min
Overall bit rate : 19.1 Mb/s
Movie name : City.of.Lies.2018.1080p.BluRay.DD5.1.x264-iFT
Encoded date : UTC 2019-06-16 15:24:29
Writing application : mkvmerge v34.0.0 ('Sight and Seen') 64-bit
Writing library : libebml v1.3.7 + libmatroska v1.5.0

Video

ID : 1
Format : AVC
Format/Info : Advanced Video Codec
Format profile : High@L4.1
Format settings : CABAC / 5 Ref Frames
Format settings, CABAC : Yes
Format settings, ReFrames : 5 frames
Codec ID : V_MPEG4/ISO/AVC
Duration : 1 h 52 min
Bit rate : 18.4 Mb/s
Width : 1 920 pixels
Height : 804 pixels
Display aspect ratio : 2.40:1
Frame rate mode : Constant
Frame rate : 24.000 FPS
Color space : YUV
Chroma subsampling : 4:2:0
Bit depth : 8 bits
Scan type : Progressive
Bits/(Pixel*Frame) : 0.497
Stream size : 14.4 GiB (97%)
Writing library : x264 core 155 r2867+74 66b5600 t_mod_Custom_2 [8-bit@all X86_64]
Encoding settings : cabac=1 / ref=5 / deblock=1:-3:-3 / analyse=0x3:0x113 / me=umh / subme=11 / psy=1 / fade_compensate=0.00 / psy_rd=1.00:0.00 / mixed_ref=1 / me_range=32 / chroma_me=1 / trellis=2 / 8x8dct=1 / cqm=0 / deadzone=21,11 / fast_pskip=0 / chroma_qp_offset=-2 / threads=12 / lookahead_threads=2 / sliced_threads=0 / nr=0 / decimate=0 / interlaced=0 / bluray_compat=0 / constrained_intra=0 / fgo=0 / bframes=8 / b_pyramid=2 / b_adapt=2 / b_bias=0 / direct=3 / weightb=1 / open_gop=0 / weightp=2 / keyint=250 / keyint_min=24 / scenecut=40 / intra_refresh=0 / rc_lookahead=60 / rc=crf / mbtree=0 / crf=16.0000 / qcomp=0.60 / qpmin=0:0:0 / qpmax=69:69:69 / qpstep=4 / vbv_maxrate=62500 / vbv_bufsize=78125 / crf_max=0.0 / nal_hrd=none / filler=0 / ip_ratio=1.30 / pb_ratio=1.20 / aq=3:0.80 / aq-sensitivity=10.00 / aq-factor=1.00:1.00:1.00 / aq2=0 / aq3=0
Language : English
Default : Yes
Forced : No
Color range : Limited
Color primaries : BT.709
Transfer characteristics : BT.709
Matrix coefficients : BT.709

Audio

ID : 2
Format : AC-3
Format/Info : Audio Coding 3
Commercial name : Dolby Digital
Codec ID : A_AC3
Duration : 1 h 52 min
Bit rate mode : Constant
Bit rate : 640 kb/s
Channel(s) : 6 channels
Channel layout : L R C LFE Ls Rs
Sampling rate : 48.0 kHz
Frame rate : 31.250 FPS (1536 SPF)
Bit depth : 16 bits
Compression mode : Lossy
Stream size : 514 MiB (3%)
Language : English
Service kind : Complete Main
Default : Yes
Forced : No

Text

ID : 3
Format : PGS
Muxing mode : zlib
Codec ID : S_HDMV/PGS
Codec ID/Info : Picture based subtitle format used on BDs/HD-DVDs
Duration : 1 h 45 min
Bit rate : 41.7 kb/s
Count of elements : 2756
Stream size : 31.5 MiB (0%)
Title : SDH
Language : Italian
Default : Yes
Forced : No

Menu

00:00:00.000 : en:Chapter 01
00:05:23.083 : en:Chapter 02
00:10:00.208 : en:Chapter 03
00:16:00.625 : en:Chapter 04
00:22:14.208 : en:Chapter 05
00:27:25.542 : en:Chapter 06
00:33:04.875 : en:Chapter 07
00:38:14.750 : en:Chapter 08
00:43:31.083 : en:Chapter 09
00:49:31.458 : en:Chapter 10
00:55:02.833 : en:Chapter 11
01:00:54.167 : en:Chapter 12
01:07:40.792 : en:Chapter 13
01:12:40.792 : en:Chapter 14
01:17:49.292 : en:Chapter 15
01:21:38.500 : en:Chapter 16
01:27:32.875 : en:Chapter 17
01:32:16.250 : en:Chapter 18
01:38:06.667 : en:Chapter 19
01:43:18.833 : en:Chapter 20