General

Unique ID : 57110289060394802670922185776344280370 (0x2AF70AA535B9D923FACE6575D2E32D32)
Complete name : /movies/d/Django_Unchained_2012_720p_BluRay_AdiT_30NAMA.mkv
Format : Matroska
Format version : Version 4
File size : 5.70 GiB
Duration : 2 h 45 min
Overall bit rate : 4 936 kb/s
Movie name : Django Unchained (2012) 720p Bluray AC3 x264 - AdiT
Encoded date : UTC 2019-10-08 10:04:47
Writing application : mkvmerge v37.0.0 ('Leave It') 64-bit
Writing library : libebml v1.3.9 + libmatroska v1.5.2

Video

ID : 1
Format : AVC
Format/Info : Advanced Video Codec
Format profile : High@L4.1
Format settings : CABAC / 12 Ref Frames
Format settings, CABAC : Yes
Format settings, ReFrames : 12 frames
Codec ID : V_MPEG4/ISO/AVC
Duration : 2 h 45 min
Bit rate : 4 262 kb/s
Width : 1 280 pixels
Height : 534 pixels
Display aspect ratio : 2.40:1
Frame rate mode : Constant
Frame rate : 23.976 (24000/1001) FPS
Color space : YUV
Chroma subsampling : 4:2:0
Bit depth : 8 bits
Scan type : Progressive
Bits/(Pixel*Frame) : 0.260
Stream size : 4.92 GiB (86%)
Writing library : x264 core 157 r2935 545de2f
Encoding settings : cabac=1 / ref=12 / deblock=1:-2:-2 / analyse=0x3:0x133 / me=umh / subme=10 / psy=1 / psy_rd=1.00:0.05 / mixed_ref=1 / me_range=48 / chroma_me=1 / trellis=2 / 8x8dct=1 / cqm=0 / deadzone=21,11 / fast_pskip=0 / chroma_qp_offset=-3 / threads=17 / lookahead_threads=1 / sliced_threads=0 / nr=0 / decimate=0 / interlaced=0 / bluray_compat=0 / constrained_intra=0 / bframes=5 / b_pyramid=2 / b_adapt=2 / b_bias=0 / direct=1 / weightb=0 / open_gop=0 / weightp=2 / keyint=240 / keyint_min=23 / scenecut=40 / intra_refresh=0 / rc_lookahead=120 / rc=crf / mbtree=0 / crf=18.2 / qcomp=0.55 / qpmin=0 / qpmax=69 / qpstep=4 / vbv_maxrate=32000 / vbv_bufsize=38000 / crf_max=0.0 / nal_hrd=none / filler=0 / ip_ratio=1.30 / pb_ratio=1.20 / aq=3:0.80
Language : English
Default : Yes
Forced : No
Color range : Limited
Color primaries : BT.709
Transfer characteristics : BT.709
Matrix coefficients : BT.709

Audio

ID : 2
Format : AC-3
Format/Info : Audio Coding 3
Commercial name : Dolby Digital
Codec ID : A_AC3
Duration : 2 h 45 min
Bit rate mode : Constant
Bit rate : 640 kb/s
Channel(s) : 6 channels
Channel layout : L R C LFE Ls Rs
Sampling rate : 48.0 kHz
Frame rate : 31.250 FPS (1536 SPF)
Bit depth : 16 bits
Compression mode : Lossy
Stream size : 757 MiB (13%)
Language : English
Service kind : Complete Main
Default : Yes
Forced : No

Text #1

ID : 3
Format : UTF-8
Codec ID : S_TEXT/UTF8
Codec ID/Info : UTF-8 Plain Text
Duration : 31 s 700 ms
Bit rate : 15 b/s
Count of elements : 1
Stream size : 61.0 Bytes (0%)
Language : English
Default : Yes
Forced : Yes

Text #2

ID : 4
Format : PGS
Codec ID : S_HDMV/PGS
Codec ID/Info : Picture based subtitle format used on BDs/HD-DVDs
Duration : 2 h 40 min
Bit rate : 33.3 kb/s
Count of elements : 3750
Stream size : 38.3 MiB (1%)
Language : English
Default : No
Forced : No

Menu

00:00:00.000 : en:Django Unchained
00:03:36.466 : en:1858 - Somewhere in Texas
00:12:47.933 : en:Daughtrey, Texas
00:18:49.419 : en:Sheriff Bill Sharp
00:26:48.273 : en:Tennessee
00:31:44.527 : en:"You mean you wanna dress like that?"
00:40:27.133 : en:It's a Raid
00:46:05.512 : en:The Legend of Broomhilda
00:52:36.862 : en:Smitty Bacall
00:58:12.822 : en:Mississippi
01:02:20.319 : en:One-Eyed Charlie
01:12:13.495 : en:The Ride to Candieland
01:18:35.794 : en:The Trackers
01:26:08.037 : en:Candieland
01:34:49.642 : en:Dr. Schultz Meets Broomhilda
01:40:52.379 : en:"You knows what I like"
01:45:34.036 : en:Eskimo Joe
01:50:01.094 : en:"You scarin' me"
01:55:03.980 : en:Old Ben
02:03:54.969 : en:"Please stop playing Beethoven"
02:08:14.103 : en:"Broomhilda Von Shaft, consider yourself a free woman"
02:14:14.379 : en:"Django, we got your woman"
02:17:28.990 : en:Castration Scene
02:22:32.544 : en:Lequint Dickey Mining Company
02:26:28.529 : en:"He weren't no slave"
02:33:00.462 : en:"Django Says Goodbye to Dr. Schultz
02:35:41.999 : en:"In the sweet by and by"
02:41:30.931 : en:"They will call you the fastest gun in the south"